Mogli Orman Çocuğu İndir – 1080p Türkçe Dublaj & Altyazılı | Filmindir.club
Öneriler
2019
Pokemon Dedektif Pikachu İndir – 1080p Türkçe Dublaj & Altyazılı
6.8
Pokemon Dedektif Pikachu İndir – 1080p Türkçe Dublaj & Altyazılı
Pokemon Dedektif Pikachu İndir – 1080p Türkçe Dublaj & Altyazılı
Full HD 0
2019 yılında gösterime giren Pokemon Dedektif Pikachu filmini DUAL Türkçe Dublaj ve Türkçe Altyazılı dil seçenekleriyle 1080p kalitesinde indirebilirsiniz.
Oyuncular Ryan Reynolds, Justice Smith, Kathryn Newton
2017
Baby Driver İndir –  Tam Gaz 2017 Türkçe Dublaj 1080p
7.6
Baby Driver İndir – Tam Gaz 2017 Türkçe Dublaj 1080p
Baby Driver İndir – Tam Gaz 2017 Türkçe Dublaj 1080p
Full HD 0
Baby genç yaşına rağmen oldukça deneyimli bir sürücüdür. Genç görünümü yüzünden Baby lakabını alan adam banka soyguncuları için sürücülük hizmeti vermektedir. Banka soygununun ardından kaçış için sürücülük yapan adamın yolu bir gün bir suç lideri ile kesişir ve onun için çalışmak zorunda kalır. Ancak girdiği bu iş başarısız olmaya mahkum bir soygundur. İşler ters gittiğinde peşine düşen farklı farklı insanlardan kaçmak zorunda kalır...
Oyuncular Ansel Elgort, Kevin Spacey, Lily James
2018
Sığınaktaki Kız İndir – 2018 Türkçe Dublaj 1080p
5.8
Sığınaktaki Kız İndir – 2018 Türkçe Dublaj 1080p
Sığınaktaki Kız İndir – 2018 Türkçe Dublaj 1080p
Full HD 0
Gerçek hikayeden kurgulanan filmde ;Bir genç kız, bir tacizci tarafından kaçırılarak orman içinde bir yeraltı sığınağında hapsedilir. Genç kız için zaman daralırken, sığınaktan kurtulmanın bir yolunu bulmalıdır. Bütün Kasaba ve polis onu aramasına rağmen hiç bir iz olmaması ailenin umutlarını yitirmesine sebep olmaktadır..
Oyuncular Henry Thomas, Julia Lalonde, Moira Kelly, Stephen Park, Jeff Clarke ve Jack Murray
film robotu
Film Robotu
Mogli Orman Çocuğu İndir – 1080p Türkçe Dublaj & Altyazılı
6.5

Mogli Orman Çocuğu İndir – 1080p Türkçe Dublaj & Altyazılı

(Mowgli )
Mogli Orman Çocuğu İndir, 2018 yılında gösterime giren orijinal adıyla Mowgli adlı filmi Dual Türkçe Dublaj ve Altyazılı ses seçenekleriyle 1080p kalitesinde indirebilirsiniz.
  • Yönetmen Andy Serkis
  • İMDB 6.5
  • Yıl 2018
  • Yapım UK | USA
  • Senaryo Callie Kloves, Rudyard Kipling
  • Yorum yok
  • Oyuncular Christian Bale, Cate Blanchett, Benedict Cumberbatch

Mogli Orman Çocuğu İndir, Rudyard Kipling’in ikonik Romanından bu sefer daha karanlık bir tonla beyaz perdeye uyarlanan film, Disney’in 2016 yılındaki hit uyarlamasından daha farklı bir hikaye anlatıyor. Hindistan’ın ormanlarındaki bir kurt sürüsü tarafından yetiştirilen insan çocuğu Mowgli’nin yetişmesini konu alıyor. Mowgli büyüme sürecinde ormanın sert kurallarını öğrenirken, ayı Baloo ve panter Bagheera’nın koruması altındadır. Mowgli ormandaki hayvanlar tarafından kendilerinden biri olarak kabul edilir. Onu kabul etmeyen tek orman sakini ise korkunç kaplan Shere Khan’dır. Ancak Mowgli insan kökeni ile yüz yüze geldiği zaman, ormanda gizlenen daha büyük tehlikeler olabilir…  2018 yılında gösterime giren Mogli Orman Çocuğu, orijinal adıyla Mowgli adlı filmi Dual Türkçe Dublaj ve Altyazılı ses seçenekleriyle 1080p kalitesinde indirebilirsiniz.

Mowgli Türkçe Dublaj İndir

Imdb : Mowgli

Video
ID : 1
Codec ID : V_MPEG4/ISO/AVC
Duration : 1 h 44 min
Bit rate : 2 200 kb/s
Width : 1 920 pixels
Height : 804 pixels
Display aspect ratio : 2.40:1
Frame rate : 23.976 (24000/1001) FPS
Stream size : 1.61 GiB (83%)
Audio #1
ID : 2
Format : AC-3
Commercial name : Dolby Digital
Codec ID : A_AC3
Duration : 1 h 44 min
Bit rate mode : Constant
Bit rate : 384 kb/s
Channel(s) : 6 channels
Channel layout : L R C LFE Ls Rs
Sampling rate : 48.0 kHz
Frame rate : 31.250 FPS (1536 SPF)
Bit depth : 16 bits
Compression mode : Lossy
Stream size : 288 MiB (14%)
Language : Turkish

Audio #2
ID : 3
Format : AAC LC SBR
Format/Info : Advanced Audio Codec Low Complexity with Spectral Band Replication
Commercial name : HE-AAC
Codec ID : A_AAC-2
Duration : 1 h 44 min
Bit rate : 64.0 kb/s
Channel(s) : 2 channels
Channel layout : L R
Sampling rate : 48.0 kHz
Frame rate : 23.438 FPS (2048 SPF)

DİREKT İNDİR 2.1 GB Alternatif
Rar şifresi: indir.cafe
Bu filmleri de inceleyin
2017
Power Rangers İndir 2017 Türkçe Dublaj 1080p
5.9
Power Rangers İndir 2017 Türkçe Dublaj 1080p
Power Rangers İndir 2017 Türkçe Dublaj 1080p
Full HD 0
Hiçbir ortak noktası olmayan 5 lise öğrencisi Jason, Kimberly, Zack, Trini ve Billy, yerin altında buldukları bir uzay gemisinin etkisiyle süper güçler kazanarak Power Rangers'ın yeni takımı olurlar. Bu esnada dünyayı ele geçirmeye kararlı Rita Repulsa (Elizabeth Banks), Goldar adlı devasa bir canavarla birlikte Zeo Kristali'ni ele geçirmek için saldırı başlatmıştır. 5 genç, yeteneklerini doğru kullanmayı öğrenmek dünyayı kötü güçlerin elinden kurtarmaya çalışacaktır.
Oyuncular Dacre Montgomery, Naomi Scott, RJ Cyler, Ludi Lin, Becky G.
2011
Singham İndir 2011 Türkçe Dublaj 720p Dual
6.8
Singham İndir 2011 Türkçe Dublaj 720p Dual
Singham İndir 2011 Türkçe Dublaj 720p Dual
HD 0
Aşağılanmış bir gangster, bölgesine yeni tayin olmuş bir komiseri rezil etmek için elinden geleni yapmaya karar verir.
Oyuncular Ajay Devgn, Prakash Raj, Sudhanshu Pandey
2008
Dünyanın Merkezine Yolculuk İndir – 2008 Türkçe Dublaj
5.8
Dünyanın Merkezine Yolculuk İndir – 2008 Türkçe Dublaj
Dünyanın Merkezine Yolculuk İndir – 2008 Türkçe Dublaj
Full HD 0
Konusunu, Jules Verne'in ünlü romanı Dünyanın Merkezine Yolculuk'tan alan filmin başrollerinde Brendan Fraser, Josh Hutcherson ve Anita Briem var. Film, maceraperest bir bilim adamı olan amcası (Fraser) ile, İzlanda'ya giden Sean (Hutcherson), burada onlara rehberlik eden Hannah'nın (Briem), tesadüfen gizli güzellikler ve tehlikelerle dolu bambaşka bir dünya keşfetmelerini konu alıyor.
Oyuncular Brendan Fraser, Josh Hutcherson, Anita Briem, Garth Gilker, Cale Boyter ve Michael Disco
2014
Galaksinin Koruyucuları 2 İndir 2017 Türkçe Dublaj 1080p
8.1
Galaksinin Koruyucuları 2 İndir 2017 Türkçe Dublaj 1080p
Galaksinin Koruyucuları 2 İndir 2017 Türkçe Dublaj 1080p
Full HD 0
Starlord olan Peter Quill’in gizemli geçmişinin sırları da çözülmeye başlıyor. Eski düşmanlar yeni müttefiklere dönüşürken, hayranların klasik çizgi Romanlardaki en çok tercih edilen karakterleri kahramanlarımızın yardımına koşuyor.
Oyuncular Chris Pratt, Vin Diesel, Bradley Cooper
2019
Kaçış Planı 3 İndir 1080p Türkçe Dublaj 2019
4.4
Kaçış Planı 3 İndir 1080p Türkçe Dublaj 2019
Kaçış Planı 3 İndir 1080p Türkçe Dublaj 2019
Full HD 0
Bir güvenlik uzmanı olan Ray Breslin, Hong Kong teknoloji patronunun kaçırılmış olan kızını Leton hapishanesinden kurtarması için işe alınır. Ancak Breslin’in kız arkadaşı da işin içine karışarak kaçırılır. Dave Bautista ve Curtis Jackson’dan oluşan bir ekibiyle birlikte takım çalışması yapma zamanı gelmiştir.
Oyuncular Sylvester Stallone, Dave Bautista, 50 Cent
Abonelik
Bildir
guest

0 Yorum
Satır İçi Geri Bildirimler
Tüm yorumları görüntüle
0
Düşünceleriniz bizim için önemli, lütfen yorum yapın.x