Hızlı ve Öfkeli 8 İndir - 1080p Türkçe Dublaj & Altyazılı | Filmindir.club
Öneriler
2018
Bir Zamanlar Deadpool İndir – 2018 Türkçe Dublaj 1080p
0.0
Bir Zamanlar Deadpool İndir – 2018 Türkçe Dublaj 1080p
Bir Zamanlar Deadpool İndir – 2018 Türkçe Dublaj 1080p
Full HD 0
Once Upon a Deadpool, 2016 yılında vizyona giren ve +18 olan Deadpool filminin herkes için seyredilebilir hali. Deadpool filminden birçok sahnenin çıkarılıp, yeni sahnelerin eklenerek farklı bir konunun ele alındığı film bu sefer +13 olarak izleyici ile buluşuyor.
Oyuncular Ryan Reynolds, Fred Savage, Josh Brolin, Morena Baccarin, Julian Dennison ve Zazie Beetz
2018
Cadılar Bayramı İndir 2018 Türkçe Dublaj DUAL 1080p
6.5
Cadılar Bayramı İndir 2018 Türkçe Dublaj DUAL 1080p
Cadılar Bayramı İndir 2018 Türkçe Dublaj DUAL 1080p
Full HD 0
Laurie Strode (Jamie Lee Curtis) son kez Michael Myers ile yüzleşiyor. 40 yıl önce Cadılar Bayramı'nda Haddonfield'da akıl hastası maskeli katil Myers'ın elinden son anda kurtulan Strode, aradan geçen bunca yıla rağmen Michael Myers'ın düşüncesini aklından atamamıştır. Kendini koruyabilmek için eğitimler almış, evini son teknoloji güvenlik aygıtlarıyla doldurmuştur. Günün birinde Myers, tutulduğu akıl hastanesinden kaçınca Laurie, bu sefer daha hazırlıklı bir şekilde katille yüzleşecektir.
Oyuncular Haluk Bilginer, Jamie Lee Curtis, Judy Greer, Andi Matichak, Will Patton, Virginia Gardner, Nick Castle Jr.
2012
Pamuk Prenses Ve Avcı İndir 2012 Türkçe Dublaj 1080p Dual
6.1
Pamuk Prenses Ve Avcı İndir 2012 Türkçe Dublaj 1080p Dual
Pamuk Prenses Ve Avcı İndir 2012 Türkçe Dublaj 1080p Dual
Full HD 0
Destansı aksiyon-macera Pamuk Prenses ve Avcı’da (Snow White and the Huntsman) Kristen Stewart (Twilight/Alacakaranlık), ülkede kötü kraliçeden (Oscar ödüllü Charlize Theron) daha güzel olan tek kişiyi, Pamuk Prenses’i canlandırıyor. Onu ortadan kaldırmak için fırsat kollayan kötü kraliçenin aklına bile gelmeyen bir şey var: Hükümdarlığını tehdit eden genç kadının, onu öldürmesi için gönderilen Avcıdan (Chris Hemsworth, Thor) savaş sanatı konusunda eğitim alıyor olması...
Oyuncular Eddie Marsan, Vincent Regan, Bob Hoskins, Ian McShane, Toby Jones
film robotu
Film Robotu
Hızlı ve Öfkeli 8 İndir – 1080p Türkçe Dublaj & Altyazılı
6.7

Hızlı ve Öfkeli 8 İndir – 1080p Türkçe Dublaj & Altyazılı

(The Fate of the Furious)
Bir önceki filmin çekimleri sırasında (sonuna yaklaşmışken) başrol oyuncusu Paul Walker’ın geçirdiği talihsiz bir trafik kazasında hayatını kaybetmesi ile yeni Hızlı ve Öfkeli filmlerine bir ek daha yapmak gerekiyor serinin 8. filmini izlemenizi tavsiye ederiz...
  • Yönetmen F. Gary Gray
  • İMDB 6.7
  • Yıl 2017
  • Yapım China | USA | Japan
  • Senaryo Gary Scott Thompson, Chris Morgan
  • Yorum yok
  • Oyuncular Vin Diesel, Jason Statham, Dwayne Johnson

Hızlı ve Öfkeli 8 İndir, Hızlı ve Öfkeli serisi kolay bir sokak macerası olarak başladı. İlk filmin başında bir yerlerde kalabalıktan birinin ettiği “lanet olası sokak yarışçıları” lafının karşılığı adamlar ve onların arasına sızan bir polisin macerasını izledik. Point Break’ten aşırılmış gibi duran bir fikirdi ancak iyi çalıştı. Need for Speed’e bayılan buna da bayıldı film sinemanın en uzun soluklu (ve de en fazla kazandıran) serilerinden birine dönüştü.

Hızlı ve Öfkeli 8 İndir Türkçe

Bir önceki filmin çekimleri sırasında (sonuna yaklaşmışken) başrol oyuncusu Paul Walker’ın geçirdiği talihsiz bir trafik kazasında hayatını kaybetmesi ile yeni Hızlı ve Öfkeli filmlerine bir ek daha yapmak gerekiyor; Hızlı, Öfkeli ve Duygusal… Arabalarla sokak arasında yarışçılık oynayan adamlardan bir ekip oluşturup dünyayı kurtarmak mümkün mü? Elbette ancak bunun için işi biraz büyütmek ve hikâyenin kuruluşunu biraz daha Bond filmlerine yaklaştırmak gerekiyor….

Hızlı ve Öfkeli 8 Full İzle Türkçe Dublaj İndir

Hızlı ve Öfkeli film serisinin sekizincisinin yönetmen koltuğunda F. Gary Gray’in oturuyor. Yapımın oyuncu kadrosunda Vin Diesel, Dwayne Johnson, Jason Statham,Charlize Theron, Lucas Black ve Kurt Russell gibi isimler alıyor. Filmin senaryosunu ise Chris Morgan kaleme aldı. The Fate of the Furious filmini Dual Türkçe Dublaj & Altyazılı dil seçeneğiyle 1080p kalitesinde ücretsiz bir şekilde sitemizden indirebilirsiniz.

Film geceniz için başka aksiyon filmi arıyorsanız Venom Zehirli Öfke filmini inceleyebilirsiniz.

Filmin IMDB konusunu inceleyebilirsiniz.

Video
ID : 1
Format : AVC
Format/Info : Advanced Video Codec
Format profile : [email protected]
Duration : 2 h 15 min
Bit rate : 2 050 kb/s
Width : 1 920 pixels
Height : 800 pixels
Display aspect ratio : 2.40:1
Frame rate : 23.976 (24000/1001) FPS
Chroma subsampling : 4:2:0
Stream size : 1.95 GiB (78%)

Audio #1
Format : AC-3
Format/Info : Audio Coding 3
Commercial name : Dolby Digital
Codec ID : A_AC3
Duration : 2 h 15 min
Bit rate : 384 kb/s
Channel(s) : 6 channels
Sampling rate : 48.0 kHz
Frame rate : 31.250 FPS (1536 SPF)
Bit depth : 16 bits
Stream size : 373 MiB (15%)
Language : Turkish

Audio #2
Format : AC-3
Format/Info : Audio Coding 3
Commercial name : Dolby Digital
Codec ID : A_AC3
Duration : 2 h 15 min
Bit rate : 192 kb/s
Channel(s) : 2 channels
Channel layout : L R
Sampling rate : 48.0 kHz
Frame rate : 31.250 FPS (1536 SPF)
Stream size : 187 MiB (7%)
Language : English

Text #1
Format : UTF-8
Codec ID : S_TEXT/UTF8
Duration : 2 h 13 min
Bit rate : 1 b/s
Stream size : 1.91 KiB (0%)
Title : FORCED
Language : Turkish

Text #2
Format : UTF-8
Codec ID : S_TEXT/UTF8
Duration : 2 h 13 min
Bit rate : 50 b/s
Count of elements : 1561
Stream size : 49.9 KiB (0%)
Title : TAM
Language : Turkish

DİREKT İNDİR 2.4 GB Alternatif
Rar şifresi: indir.cafe
Bu filmleri de inceleyin
2017
Hızlı ve Öfkeli 8 İndir – 1080p Türkçe Dublaj & Altyazılı
6.7
Hızlı ve Öfkeli 8 İndir – 1080p Türkçe Dublaj & Altyazılı
Hızlı ve Öfkeli 8 İndir – 1080p Türkçe Dublaj & Altyazılı
Full HD 0
Bir önceki filmin çekimleri sırasında (sonuna yaklaşmışken) başrol oyuncusu Paul Walker’ın geçirdiği talihsiz bir trafik kazasında hayatını kaybetmesi ile yeni Hızlı ve Öfkeli filmlerine bir ek daha yapmak gerekiyor serinin 8. filmini izlemenizi tavsiye ederiz...
Oyuncular Vin Diesel, Jason Statham, Dwayne Johnson
2015
Yılbaşı Kabusu İndir – Krampus 2015 Türkçe Dublaj 1080p Dual
6.2
Yılbaşı Kabusu İndir – Krampus 2015 Türkçe Dublaj 1080p Dual
Yılbaşı Kabusu İndir – Krampus 2015 Türkçe Dublaj 1080p Dual
Full HD 0
Yılbaşını bir kabusa çeviren Krampus filmi, ufak bir kasabada yaşayan Max ve ailesinin sakin bir yılbaşı geçireceklerini sanırken insan yiyen oyuncak ayılarla, kötü kalpli kurmalı oyuncaklarla ve eski tarihlerden beri dünya genelindeki hükmünü sürdüren kana susamış bir şeytanla savaşmak zorunda kalışlarının hikayesini işliyor… Korku-komedi türündeki film yılbaşı huzurunu bir hayatta kalma mücadelesine dönüştürüyor.
Oyuncular Adam Scott, Toni Collette, Stefania LaVie Owen, David Koechner
2017
Bilal Özgürlüğün Sesi İndir 2017 Türkçe Dublaj 1080p
7.7
Bilal Özgürlüğün Sesi İndir 2017 Türkçe Dublaj 1080p
Bilal Özgürlüğün Sesi İndir 2017 Türkçe Dublaj 1080p
Full HD 0
1400 yıl kadar önce, büyük bir savaşçı olma hayalleri kuran Bilal adlı bir genç, kız kardeşi ile birlikte kaçırılarak evinde çok uzaklardaki bir köle pazarında satılır. Burada Hz. Muhammed tarafından özgürlüğü satın alınır. Sonrasında yeni inancının saflarına katılan Bilal, inandıkları uğruna savaşacak, bu inancın en büyük sembolüne ilk sesi veren kişi olacaktır. Animasyon türündeki filmde ilk ezanı okuyan Bilal-i Habeşi'nin hayat öyküsü anlatılıyor.
Oyuncular Engin Altan Düzyatan, Ayça Bingöl, Tamer Karadağlı, Volkan Severcan ve Hakan Vanlı
2018
Yunus Bernie İndir – 1080p Türkçe Dublaj
5.5
Yunus Bernie İndir – 1080p Türkçe Dublaj
Yunus Bernie İndir – 1080p Türkçe Dublaj
Full HD 0
2018, Bernie adındaki yunus ile büyük bir arkadaşlık bağı kuran iki kardeş, hayatı tehlikede olan Bernie ve sahili kurtarmak için plan yapmak zorundadır.
Oyuncular Lola Sultan, Logan Allen, Kevin Sorbo
2018
Kokain Adası Efsanesi İndir 2019 Türkçe Dublaj 1080p
6.3
Kokain Adası Efsanesi İndir 2019 Türkçe Dublaj 1080p
Kokain Adası Efsanesi İndir 2019 Türkçe Dublaj 1080p
Full HD 0
Bir şehir efsanesine inanan ekip Karayiplerde gömülü olduğu iddia edilen bir çanta dolusu kokaini bulabilmek için plan yapmaya başlar. Rodney Hyden, kendine ait ufak bir işletmeye sahiptir. Ekonomik sıkıntılardan dolayı işleri bozulmuştur ve borçları da günden güne artmaktadır. Tüm bu borçlardan kurtulabileceği bir söylenti duyar. Bu söylentiye göre bir harita, bir ada ve gömülü bir hazine bulunuyor ve hazineyi bulan zengin oluyor.
Abonelik
Bildir
guest

0 Yorum
Satır İçi Geri Bildirimler
Tüm yorumları görüntüle
0
Düşünceleriniz bizim için önemli, lütfen yorum yapın.x