Venom Zehirli Öfke Türkçe Dublaj İndir - 1080p | Filmindir.club
Öneriler
2019
Steve McQueen’i Bulmak İndir – 1080p Türkçe Dublaj
6.3
Steve McQueen’i Bulmak İndir – 1080p Türkçe Dublaj
Steve McQueen’i Bulmak İndir – 1080p Türkçe Dublaj
Full HD 0
2019 yapımı film gerçek bir hikayeye dayanmaktadır. Suç komedisi tarzındaki filmde bir hırsız çetesi Richard Nixon'ın gizli fonundan milyonlarca para çalmaya çalışıyorlar. Steve McQueen'i Bulmak filmini Full HD 1080p kalitesinde Türkçe Dublaj dilinde indirebilirsiniz.
Oyuncular Travis Fimmel, Rachael Taylor, Jake Weary
2011
Köstebek İndir – Tinker Tailor Soldier Spy 2011 Türkçe Dublaj 1080p
7.0
Köstebek İndir – Tinker Tailor Soldier Spy 2011 Türkçe Dublaj 1080p
Köstebek İndir – Tinker Tailor Soldier Spy 2011 Türkçe Dublaj 1080p
Full HD 0
Birimin başındaki isim olan Control’ün sağ koluyken, görevden uzaklaştırılan İngiliz casusu George Smiley (Gary Oldman), hükumet tarafından gizlice yeniden kiralanır.
Oyuncular Gary Oldman, Mark Strong, John Hurt
2017
Hızlı ve Öfkeli 8 İndir – 1080p Türkçe Dublaj & Altyazılı
6.7
Hızlı ve Öfkeli 8 İndir – 1080p Türkçe Dublaj & Altyazılı
Hızlı ve Öfkeli 8 İndir – 1080p Türkçe Dublaj & Altyazılı
Full HD 0
Bir önceki filmin çekimleri sırasında (sonuna yaklaşmışken) başrol oyuncusu Paul Walker’ın geçirdiği talihsiz bir trafik kazasında hayatını kaybetmesi ile yeni Hızlı ve Öfkeli filmlerine bir ek daha yapmak gerekiyor serinin 8. filmini izlemenizi tavsiye ederiz...
Oyuncular Vin Diesel, Jason Statham, Dwayne Johnson
film robotu
Film Robotu
Venom Zehirli Öfke Türkçe Dublaj İndir – 1080p
6.7

Venom Zehirli Öfke Türkçe Dublaj İndir – 1080p

(Venom)
Marvel karakterinden uyarlanan ABD yapımı süper kahraman filmi. 2018 yılında gösterime girmiş olan aksiyon, bilimkurgu, gerilim türündeki filmi sitemizden Full HD 1080p kalitesinde tek link hızlı indirebilirsiniz.
  • Yönetmen Ruben Fleischer
  • İMDB 6.7
  • Yıl 2018
  • Yapım China, USA
  • Senaryo Jeff Pinkner, Scott Rosenberg
  • Yorum yok
  • Oyuncular Tom Hardy, Michelle Williams, Riz Ahmed

Venom Zehirli Öfke Türkçe Dublaj İndir, Marvel karakterinden uyarlanan ABD yapımı süper kahraman filmi. Ruben Fleischer tarafından yönetilen filmin başrollerinde Tom Hardy ve Michelle Williams bulunmaktadır. Eddie, Anne ile beraber hoş bir hayat geçirir. Eddie bir gün “Carlton Drake” kafayı takar. Eddie röportaj yaparken Carlton’a önemli olan sorular sorar. Carlton yanıt vermeyince Eddie onu sinirlendirir ve Eddie işinden olur ve sevgilisini kaybeder.

Venom Zehirli Öfke İndir filminde aradan 8 ay geçtikten sonra bir gün Dr. Dora Skirth, Eddie ulaşmaya çalışır. Carlton’un kötü işler yaptığına dair ikna etmeye çalışır. Eddie başta inanmaz ancak sonra intikam almak ister. Laboratuvara giderler ve Eddie’nin sokak arkadaşı Maria’yı kaçırmışlardır ve simbiyot Venom onun bedenine geçmiştir. Eddie Maria’yı kurtarmak isterken Venom Eddie’nin bedenine geçer. 2018 yılında gösterime girmiş olan aksiyon, bilimkurgu, gerilim türündeki filmi sitemizden Full HD 1080p kalitesinde tek link hızlı indirebilirsiniz.

Sitedeki bir önceki paylaşımımız olan yerli korku filmi Siccin 5 İndir filmini inceleyebilirsiniz…

Video
ID : 1
Format : AVC
Format/Info : Advanced Video Codec
Format profile : [email protected]
Format settings : CABAC / 5 Ref Frames
Format settings, CABAC : Yes
Format settings, Reference frames : 5 frames
Codec ID : V_MPEG4/ISO/AVC
Duration : 1 h 52 min
Bit rate : 1 980 kb/s
Width : 1 920 pixels
Height : 800 pixels
Display aspect ratio : 2.40:1
Frame rate mode : Constant
Frame rate : 23.976 (24000/1001) FPS
Color space : YUV
Chroma subsampling : 4:2:0
Bit depth : 8 bits
Scan type : Progressive
Bits/(Pixel*Frame) : 0.054
Stream size : 1.55 GiB (81%)
Title : www.Filmindir.Club
Writing library : x264 core 155 r2901 7d0ff22
Default : Yes
Forced : No

Audio #1
ID : 2
Format : AAC LC SBR
Format/Info : Advanced Audio Codec Low Complexity with Spectral Band Replication
Commercial name : HE-AAC
Format settings : Explicit
Codec ID : A_AAC-2
Duration : 1 h 52 min
Bit rate : 64.0 kb/s
Channel(s) : 2 channels
Channel layout : L R
Sampling rate : 48.0 kHz
Frame rate : 23.438 FPS (2048 SPF)
Compression mode : Lossy
Delay relative to video : 31 ms
Stream size : 51.3 MiB (3%)
Title : www.Filmindir.Club
Language : English
Default : No
Forced : No

Audio #2
ID : 3
Format : AC-3
Format/Info : Audio Coding 3
Commercial name : Dolby Digital
Codec ID : A_AC3
Duration : 1 h 52 min
Bit rate mode : Constant
Bit rate : 384 kb/s
Channel(s) : 6 channels
Channel layout : L R C LFE Ls Rs
Sampling rate : 48.0 kHz
Frame rate : 31.250 FPS (1536 SPF)
Bit depth : 16 bits
Compression mode : Lossy
Stream size : 308 MiB (16%)
Title : www.Filmindir.Club
Language : Turkish
Service kind : Complete Main
Default : Yes
Forced : Yes

DİREKT İNDİR 1.8 GB Alternatif
Rar şifresi: indir.cafe
Bu filmleri de inceleyin
1980
Çöl Aslanı Ömer Muhtar İndir 1981 Türkçe Dublaj 1080p Dual
8.2
Çöl Aslanı Ömer Muhtar İndir 1981 Türkçe Dublaj 1080p Dual
Çöl Aslanı Ömer Muhtar İndir 1981 Türkçe Dublaj 1080p Dual
Full HD 0
Diktatör Mussolini Müslüman yerlileri yok edebilmek için yirmi yıl boyunca Afrika’daki şiddet politikasına devam etmektedir. Onun generallerinden biri olan Rodolfo Graziani’i Libya valisi olarak atar. Burada isyancılar diye adlandırdığı insanları yakalayarak onları cezalandırmasını ister.
Oyuncular Anthony Quinn, Oliver Reed, Rod Steiger
2017
Unicorn Store İndir 2019 Türkçe Dublaj 1080p Dual
5.5
Unicorn Store İndir 2019 Türkçe Dublaj 1080p Dual
Unicorn Store İndir 2019 Türkçe Dublaj 1080p Dual
Full HD 0
Brie Larson`un ilk yönetmenlik deneyimi olan Unicorn Store, ailesinin yanına taşınmak zorunda kalan Kid adındaki bir kadının hayatını konu ediyor. Kit, gizemli bir davetiye ile bir mağazaya davet edilir. Bu davet sayesinde büyümekle ilgili fikirlerinin doğru olup olmadığını anlayacaktır.
Oyuncular Brie Larson, Samuel L. Jackson, Joan Cusack
2017
Kızlar Gecesi İndir 2017 Türkçe Dublaj 1080p
5.2
Kızlar Gecesi İndir 2017 Türkçe Dublaj 1080p
Kızlar Gecesi İndir 2017 Türkçe Dublaj 1080p
Full HD 0
Bekarlığa veda partisi verecek olan bir grup kız arkadaş doya doya eğlenebilmek için bir villa kiralarlar. Arkadaşlarının evliliğini kutlayan kız grubu eğlenceyi tamamlaması için erkek striptizciler de getirtir. Eğlence sürüp içkiler içilirken bir kaza meydana gelir ve erkek striptizcilerden biri ölür. Arkadaş grubu bu olayın üzerine ne yapmaları gerektiğine karar vermek durumunda kalır...
Oyuncular Scarlett Johansson, Kate McKinnon, Jillian Bell
2001
Hayalet Dünya İndir – Ghost World 2001 Türkçe Altyazılı 1080p
7.3
Hayalet Dünya İndir – Ghost World 2001 Türkçe Altyazılı 1080p
Hayalet Dünya İndir – Ghost World 2001 Türkçe Altyazılı 1080p
Full HD 0
Enid ve Rebecca, liseyi henüz bitirmiş olan iki yakın arkadaştırlar. Bir gün Rebecca bir kafede işe girer ve kendi evine çıkmaya karar verir. Ona oranla oldukça karamsar birisi olan Enid ise dünyadaki tüm insanları aptal olarak kabul etmektedir.
Oyuncular Thora Birch, Scarlett Johansson, Steve Buscemi
2014
Halo Gece Karanlığı İndir – Halo Nightfall 2014 Türkçe Dublaj 1080p
5.5
Halo Gece Karanlığı İndir – Halo Nightfall 2014 Türkçe Dublaj 1080p
Halo Gece Karanlığı İndir – Halo Nightfall 2014 Türkçe Dublaj 1080p
Full HD 0
Xbox’un en çok satan ve oynan HALO oyununun filme çevrilmiş halidir. 26. yüzyılda insanlık ve uzaylılar arasındaki uzun süren savaş yapılan bir antlaşma ile sona erdi. Ateşkese rağmen Dünya’nın dış kolonileri sözleşmenin gizli saldırına karşı savunmasız bir halde kalır. Deniz İstihbarat Bürosu, bu işe görevli olarak atanır. Sedra gezegeninde komutan Jameson Locke ve ekibi bir Covenant uzay aracına tanık olur. Bir alışveriş merkezinde bomba patlatan uzaylıyı durdurmaya çalışırlar. Bu patlama insanlık için ölümcül bir biyolojik saldırıdır.
Oyuncular Mike Colter, Christina Chong, Steven Waddington, Christian Contreras, Alex Bhat ve Luke Neal
Abonelik
Bildir
guest

0 Yorum
Satır İçi Geri Bildirimler
Tüm yorumları görüntüle
0
Düşünceleriniz bizim için önemli, lütfen yorum yapın.x