Her Çocuk Özeldir İndir - 1080p Türkçe Dublaj & Altyazılı | Filmindir.club
Öneriler
1997
Can Dostum İndir 1997 Türkçe Dublaj 1080p
8.3
Can Dostum İndir 1997 Türkçe Dublaj 1080p
Can Dostum İndir 1997 Türkçe Dublaj 1080p
Full HD 0
Can Dostum'da Will Hunting genel iq’nun çok çok üzerinde bir zeka seviyesine sahip, MIT’de temizlikçi olarak çalışan genç bir çocuktur. Temizlik yaptığı akşamlardan birinde, bir sınıfın tahtasında yazılı olan bir matematik sorusuna denk gelir. Çözülmesi neredeyse imkansız olan bu problemi rahatlıkla çözen Will, sessizce ortadan kaybolur.
Oyuncular Matt Damon, Robin Williams, Ben Affleck
2005
Görünmez Savaşçı İndir – Stealth 2005 Türkçe Dublaj 1080p
5.0
Görünmez Savaşçı İndir – Stealth 2005 Türkçe Dublaj 1080p
Görünmez Savaşçı İndir – Stealth 2005 Türkçe Dublaj 1080p
Full HD 0
Henry, Ben ve Kara, Amerikan Donanması'na bağlı savaş pilotlarıdır. Takımlarına yeni katılan yüksek teknoloji ürünü 'görünmez savaş uçağı' kontrolden çıkınca onu etkisiz hale getirmek, bu üç pilota düşer.
Oyuncular Josh Lucas, Jessica Biel, Jamie Foxx, Sam Shepard, Richard Roxburgh ve Joe Morton
2018
Yedi Ölümcül Günah 3 Sezon İndir – 1080p Türkçe Dublaj & Altyazılı
8.2
Yedi Ölümcül Günah 3 Sezon İndir – 1080p Türkçe Dublaj & Altyazılı
Yedi Ölümcül Günah 3 Sezon İndir – 1080p Türkçe Dublaj & Altyazılı
Full HD 0
Bir zamanlar İngiltere Krallığı'nı devirmek için komplolar kurmuş olan Yedi Ölümcül Günah, bazıları tarafından hala canlı olduğu iddia edilmektedir. Kutsal Şövalyeler tarafından kökleri kazınmış olduğu ileri sürülmüşken aradan geçen 10 yılın sonunda Kutsal Şövalyeler hükümete darbe düzenleyerek krala suikast yapmış ve krallığı ele geçirmişlerdir. Kralın tek kızı Elizabeth ise Yedi Ölümcül Günah'ı bularak krallığı geri alma konusunda yardım için yolculuğa çıkmıştır. Yedi Ölümcül Günah 3. Sezon Tüm Bölümleri Boxset arşivi olarak Dual Türkçe Dublaj & Altyazılı dil seçenekleriyle 1080p kalitesinde indirebilirsiniz.
Oyuncular Yuki Kaji, Rintarou Nishi, Misaki Kuno
film robotu
Film Robotu
Her Çocuk Özeldir İndir – 1080p Türkçe Dublaj & Altyazılı
8.4

Her Çocuk Özeldir İndir – 1080p Türkçe Dublaj & Altyazılı

(Taare Zameen Par)
Sorunlu bir çocuk ve onun hayatını değiştiren bir öğretmenin hikayesini anlatıyor. 8 yaşındaki Ishaan Awasthi, hiç kimse tarafından taktir edilmeyen bir çocuktur. Okulda dersleri kötüdür, üstelik arkadaşları ile de sıklıkla kavga eder.
  • Yönetmen Amole Gupte
  • İMDB 8.4
  • Yıl 2007
  • Yapım Hindistan
  • Senaryo Aamir Khan, Amole Gupte
  • Yorum yok
  • Oyuncular Darsheel Safary, Aamir Khan, Tisca Chopra

Her Çocuk Özeldir indir, sorunlu bir çocuk ve onun hayatını değiştiren bir öğretmenin hikayesini anlatıyor. 8 yaşındaki Ishaan Awasthi, hiç kimse tarafından taktir edilmeyen bir çocuktur. Okulda dersleri kötüdür, üstelik arkadaşları ile de sıklıkla kavga eder. Arkadaşları, öğretmenleri ve ailesi tarafından dışlanan Ishaan, ailesi tarafından disipline sokulması için yatılı okula gönderilir. Burada da durum pek farklı değildir.

Her Çocuk Özeldir Full HD İndir

Ta ki resim öğretmeni Ram Shankar ile tanışana kadar. Ishaan’ın çok mutsuz ve yalnız bir çocuk olduğunu fark eden Ram, bunun sebebini araştırmaya başlar. Onun aslında çok özel bir çocuk olduğunu anlayan öğretmen, sabır ve özenle Ishan’ın kendisini bulmasına yardım eder. Taare Zameen Par filmini Dual Türkçe Dublaj & Altyazılı dil seçenekleriyle ve 1080p kalitesinde ücretsiz indirebilirsiniz.

Sitemizdeki bir önceki paylaşımımız, toplamda 1,239 milyon dolar ciro yapmış olan Hızlı ve Öfkeli 8 İndir konusundan filmi indirip aksiyon dolu sahneleri izleyebilirsiniz…

Video
ID : 1
Format : AVC
Format/Info : Advanced Video Codec
Format profile : [email protected]
Codec ID : V_MPEG4/ISO/AVC
Duration : 2 h 42 min
Bit rate : 2 000 kb/s
Width : 1 920 pixels
Height : 816 pixels
Display aspect ratio : 2.35:1
Frame rate : 23.976 (24000/1001) FPS
Chroma subsampling : 4:2:0
Bit depth : 8 bits
Bits/(Pixel*Frame) : 0.053
Stream size : 2.27 GiB (83%)

Audio #1
ID : 2
Format : AC-3
Format/Info : Audio Coding 3
Commercial name : Dolby Digital
Codec ID : A_AC3
Duration : 2 h 42 min
Bit rate mode : Constant
Bit rate : 192 kb/s
Channel(s) : 2 channels
Channel layout : L R
Sampling rate : 48.0 kHz
Frame rate : 31.250 FPS (1536 SPF)
Bit depth : 16 bits
Compression mode : Lossy
Stream size : 223 MiB (8%)
Language : Turkish

Audio #2
ID : 3
Format : AC-3
Format/Info : Audio Coding 3
Commercial name : Dolby Digital
Codec ID : A_AC3
Duration : 2 h 42 min
Bit rate mode : Constant
Bit rate : 224 kb/s
Channel(s) : 6 channels
Channel layout : L R C LFE Ls Rs
Sampling rate : 48.0 kHz
Frame rate : 31.250 FPS (1536 SPF)
Bit depth : 16 bits
Compression mode : Lossy
Stream size : 260 MiB (9%)
Language : Hindi

Text
ID : 4
Format : UTF-8
Codec ID : S_TEXT/UTF8
Codec ID/Info : UTF-8 Plain Text
Duration : 2 h 32 min
Bit rate : 46 b/s
Count of elements : 1218
Stream size : 51.6 KiB (0%)
Language : Turkish
Default : No
Forced : No

DİREKT İNDİR 2 GB Alternatif
Rar şifresi: indir.cafe
Bu filmleri de inceleyin
2018
Bird Box İndir 2018 Türkçe Altyazılı 1080p
6.6
Bird Box İndir 2018 Türkçe Altyazılı 1080p
Bird Box İndir 2018 Türkçe Altyazılı 1080p
Full HD 0
İnsanları sadece bir bakışta çılgına çeviren garip bir kötülük dünyayı tüketmiştir. Bu gizemli güç dünyadaki nüfusu azalttığında, Malorie (Sandra Bullock) bilinmeyenle yüzleşmek ve iki çocuğuyla birlikte güvende olabilecekleri bir yere sığınmak zorudadır. Oldukça tehlikeli olan bu yolculukta tek bir hataları ölümlerine sebep olacaktır. Üstelik yolculuk sırasında ne olursa olsun gözleri bağlı olmalıdır. Onlar diğer duyularına güvenerek bu yolculuğa atılırken, peşlerindeki bir varlık da kendilerini adım adım takip etmektedir. “Bird Box”, çocuklarıyla hayatlarını huzur içinde yaşamanın yanı sıra, muhtemelen efsanelerde bahsedilen güvenli bir cennete girmeyi amaçlayan bir kadın olan Malorie'yi izliyor.
Oyuncular Sandra Bullock, Trevante Rhodes, Jacki Weaver, Rosa Salazar, Danielle MacDonald ve Lil Rel Howery
2019
Ortak İndir – The Hard Way 2019 Türkçe Dublaj 1080p DUAL
4.8
Ortak İndir – The Hard Way 2019 Türkçe Dublaj 1080p DUAL
Ortak İndir – The Hard Way 2019 Türkçe Dublaj 1080p DUAL
Full HD 0
 The Hard Way filmi 2019 yılında Netflix tarafından yayınlandı. Eski bir asker kardeşinin Romanya’da bir görevde öldüğünü öğrenir. Bunun acısıyla iki kişiyle birlik olup kardeşini öldüren gizemli düşmandan intikam almak için yola koyulur.
Oyuncular Michael Jai White, Luke Goss, Randy Couture, madalina Anea, Grant Campbell, George Remes ve Ovidiu Niculescu
2018
Vice İndir 2018 Türkçe Altyazılı 1080p
7.2
Vice İndir 2018 Türkçe Altyazılı 1080p
Vice İndir 2018 Türkçe Altyazılı 1080p
Full HD 0
Bir bürokratın sessiz sedasız ilerleyeren Başkan George W. Bush’a başkan yardımcısı olarak dünyadaki en güçlü insanlardan birine dönüşmesinin, ülkeyi ve dünyayı bugün hala bugün hissettiğimiz haliyle tekrardan şekillendirmiş olmasının epik hikayesini konu edinen bir filmdir.
Oyuncular Christian Bale, Amy Adams, Steve Carell
2018
Tabaluga İndir 2018 Türkçe Dublaj 1080p
5.2
Tabaluga İndir 2018 Türkçe Dublaj 1080p
Tabaluga İndir 2018 Türkçe Dublaj 1080p
Full HD 0
Tabaluga, uçmayı ve ateş etmeyi öğrenmek için buz ülkesine giden küçük bir ejderhanın maceralarını konu ediyor.Türünün son örneği olan Tabaluga adındaki küçük ejderhanın, büyük bir sorunu vardır.
Oyuncular Wincent Weiss, Yvonne Catterfeld, Heinz Hoenig
2019
Beats İndir – 2019 Türkçe Dublaj 1080p DUAL
6.3
Beats İndir – 2019 Türkçe Dublaj 1080p DUAL
Beats İndir – 2019 Türkçe Dublaj 1080p DUAL
Full HD 0
Münzevi bir genç müzik dahisi, talihsiz bir lise güvenlik görevlisi ile beklenmedik bir arkadaşlık kurar.Karşılıklı hiphop sevgileriyle birleşerek, geçmişlerinin şeytanlarıyla yüzleşir ve Chicago'nun müzik sahnesine girmeye çalışırlar.
Oyuncular Anthony Anderson, Uzo Aduba, Emayatzy E. Corinealdi, Khalil Everage, Dreezy ve Dave East
Abonelik
Bildir
guest

0 Yorum
Satır İçi Geri Bildirimler
Tüm yorumları görüntüle
0
Düşünceleriniz bizim için önemli, lütfen yorum yapın.x