Deadpool İndir – 1080p Türkçe Dublaj & Altyazılı | Filmindir.club
Öneriler
2018
Kara Göl Miras İndir – 2018 Türkçe Dublaj 1080p DUAL TR-EN
3.4
Kara Göl Miras İndir – 2018 Türkçe Dublaj 1080p DUAL TR-EN
Kara Göl Miras İndir – 2018 Türkçe Dublaj 1080p DUAL TR-EN
Full HD 0
Bir grup şehir kaşifi, ölümcül ve unutulmuş bir sırra ev sahipliği yapan Maine eyaletinin dışındaki sakin bir gölde maceraya atılır.Ne yazık ki onlar için, çabucak yalnız olmadıklarını keşfederler ve hepsini öldürebilecek ölümcül bir tehditle karşılaşırlar.
Oyuncular Katherine Barrell, Tim Rozon, Sai Bennett, Joe Pantoliano, Luke Newton ve Greg Kriek
2018
Genç Titanlar Filmi İndir 2018 Türkçe Dublaj 1080p
6.7
Genç Titanlar Filmi İndir 2018 Türkçe Dublaj 1080p
Genç Titanlar Filmi İndir 2018 Türkçe Dublaj 1080p
Full HD 0
Süper kahraman ekibi Genç Titanlar’ın dünyayı ele geçirmeye çalışanlara karşı verdikleri zorlu mücadeleyi konu ediyor. Süper kahraman ekibi Teen Titans'ın üyelerine göre; bütün süper kahramanların kendilerine ait bir filmleri vardır.
Oyuncular Scott Menville, Greg Cipes, Tara Strong
2005
King Kong İndir 2005 Türkçe Dublaj 1080p Dual
7.2
King Kong İndir 2005 Türkçe Dublaj 1080p Dual
King Kong İndir 2005 Türkçe Dublaj 1080p Dual
Full HD 0
Carl Denham, üzerinde çalıştığı filmini tamamlamak için olabileceği en mükemmel yerdedir. Kafatası Adası. Uzun süre aradığı baş rol oyuncusunu henüz bulmuştur. Bu talihsiz rolü üstlenecek olan kişi Ann Darrow’dur. Hiç kimse bu adada karşılaşacakları şeylerden haberdar değildir. Neden bu denli gizemli olduğunu da bilmezler ama kısa süre içinde bunun cevabını bulacaklardır.
Oyuncular Naomi Watts, Jack Black, Adrien Brody
film robotu
Film Robotu
  • Yönetmen Tim Miller
  • İMDB 8.0
  • Yıl 2016
  • Yapım USA
  • Senaryo Rhett Reese, Paul Wernick
  • Yorum yok
  • Oyuncular Ryan Reynolds, Morena Baccarin, T.J. Miller

Deadpool Türkçe Dublaj

Deadpool İndir, Eski bir özel kuvvetler görevlisi olan Wade Wilson ordudan ayrıldıktan sonra kendi çöplüğünde, kendi kurallarına göre takılan, kötünün iyisi bir adamdır. Hayatına yeni giren Vanessa ile harika bir ahengi varken bir şeylerin tam da yolunda gittiğni düşünürken, kanser olduğu gerçeğiyle yüz yüze kalır. Sevdiği kadını bu acılı süreci izlemekten kurtarmak için onu terk eden Wade, kendisine tedavi umudu sunan bir bilimsel projeye katılır. Fakat bu proje yalnızca bir ‘yan etki’ olarak kansere tedavi olacaktır.

Deadpool İndir

Deadpool 1 filminde asıl amaç birtakım DNA’ları tetiklemektir. Akla gelmeyecek acılara göğüs geren Wade, her şey sona erdiğinde üstün yetenkelere sahip olur. Fakat bütün bu özellikleriyle tek bir amacı vardır, Ajax “Francis”ten intikam almak! Hayatından kimi kesitleri de bizlerle paylaşan kahramanın intikam hikâye sünde Profesör X’in ekibinden erdemli Colossus ve buluğ çağındaki Negasonic Teenage Warhead de ona eşlik ediyor. 2016 yapımı aksiyon,macera,komedi türündeki filmi sitemizden Dual Türkçe Dublaj & Altyazılı 1080p kalitesinde indirebilirsiniz.

Ayrıca bu filmden önce paylaştığımız Çağrı İslamiyetin Doğuşu İndir  konusuna göz atabilirsiniz…

General
Complete name : Deadpool.2016.m1080p.BluRay.x264.DUAL.TR.ENG.mkv
Format : Matroska
File size : 2.13 GiB
Duration : 1 h 48 min
Overall bit rate : 2 819 kb/s

Video
ID : 1
Format : AVC
Format/Info : Advanced Video Codec
Format profile : Main@L4
Format settings : CABAC / 2 Ref Frames
Format settings, CABAC : Yes
Format settings, Reference frames : 2 frames
Codec ID : V_MPEG4/ISO/AVC
Duration : 1 h 48 min
Bit rate : 2 421 kb/s
Width : 1 920 pixels
Height : 808 pixels
Display aspect ratio : 2.40:1
Frame rate mode : Constant
Frame rate : 23.976 FPS
Color space : YUV
Chroma subsampling : 4:2:0
Bit depth : 8 bits
Scan type : Progressive
Bits/(Pixel*Frame) : 0.065
Stream size : 1.83 GiB (86%)
Language : English
Default : Yes
Forced : No

Audio #1
ID : 2
Format : AC-3
Format/Info : Audio Coding 3
Commercial name : Dolby Digital
Codec ID : A_AC3
Duration : 1 h 48 min
Bit rate mode : Constant
Bit rate : 192 kb/s
Channel(s) : 2 channels
Channel layout : L R
Sampling rate : 48.0 kHz
Frame rate : 31.250 FPS (1536 SPF)
Bit depth : 16 bits
Compression mode : Lossy
Stream size : 148 MiB (7%)
Language : Turkish
Service kind : Complete Main
Default : Yes
Forced : No

Audio #2
ID : 3
Format : AC-3
Format/Info : Audio Coding 3
Commercial name : Dolby Digital
Codec ID : A_AC3
Duration : 1 h 48 min
Bit rate mode : Constant
Bit rate : 192 kb/s
Channel(s) : 2 channels
Channel layout : L R
Sampling rate : 48.0 kHz
Frame rate : 31.250 FPS (1536 SPF)
Bit depth : 16 bits
Compression mode : Lossy
Stream size : 148 MiB (7%)
Language : English
Service kind : Complete Main
Default : No
Forced : No

Text
ID : 4
Format : PGS
Muxing mode : zlib
Codec ID : S_HDMV/PGS
Codec ID/Info : Picture based subtitle format used on BDs/HD-DVDs
Duration : 1 h 47 min
Bit rate : 10.8 kb/s
Count of elements : 2822
Stream size : 8.26 MiB (0%)
Language : Turkish
Default : No
Forced : No

DİREKT İNDİR 2.1 GB Alternatif
Rar şifresi: indir.cafe
Bu filmleri de inceleyin
2019
Five Feet Apart İndir – 2019 Türkçe Altyazılı 1080p
7.2
Five Feet Apart İndir – 2019 Türkçe Altyazılı 1080p
Five Feet Apart İndir – 2019 Türkçe Altyazılı 1080p
Full HD 0
Hasta iki gencin yolları hastanede kesişerek değişecektir. Stella Grant, bilgisayara bağlı bir hayat sürmekte ve yaşıtları gibi gezip tozmak yerine hayatını hastanede sürdüren 17 yaşında bir genç kızdır. Kistik fibrozis hastalığına yakalanmış olan genç kız hayatını sınırlamalar ve kendini kontrol etmekle geçirmektedir. Fakat Stella’nın hayatı etkileyici bir genç olan Will Newman ile tanıştıktan sonra tamamen değişir.
Oyuncular Haley Lu Richardson, Cole Sprouse, Moises Arias, Kimberly Hebert Gregory, Parminder Nagra ve Claire Forlani
2018
Asteriks Sihirli İksirin Sırrı İndir 2018 Türkçe Dublaj 1080p
6.7
Asteriks Sihirli İksirin Sırrı İndir 2018 Türkçe Dublaj 1080p
Asteriks Sihirli İksirin Sırrı İndir 2018 Türkçe Dublaj 1080p
Full HD 0
Büyüfix, Asterix ve Oburix ile beraber iksirin formülünü paylaşacağı büyücüyü seçmek için yola çıkarlar. Bu sihirli iksir Galyalıların gücünü oldukça arttıran özel bir iksirdir. Büyüfix ise bu iksirin formülünü bilen tek kişidir.
Oyuncular Bernard Alane, Christian Clavier, Guillaume Briat
2019
Uzaylı Savaşı İndir – Alien Warfare 2019 Türkçe Dublaj 1080p DUAL
2.6
Uzaylı Savaşı İndir – Alien Warfare 2019 Türkçe Dublaj 1080p DUAL
Uzaylı Savaşı İndir – Alien Warfare 2019 Türkçe Dublaj 1080p DUAL
Full HD 0
Amerikan deniz komandosu ekibi, bilim insanlarının esrarengiz bir şekilde ortadan kaybolduğu bir araştırma merkezindeki çok gizli bir göreve gider.
Oyuncular Clayton Snyder, David B. Meadows, Daniel Washington
2018
Mogli Orman Çocuğu İndir – 1080p Türkçe Dublaj & Altyazılı
6.5
Mogli Orman Çocuğu İndir – 1080p Türkçe Dublaj & Altyazılı
Mogli Orman Çocuğu İndir – 1080p Türkçe Dublaj & Altyazılı
Full HD 0
Mogli Orman Çocuğu İndir, 2018 yılında gösterime giren orijinal adıyla Mowgli adlı filmi Dual Türkçe Dublaj ve Altyazılı ses seçenekleriyle 1080p kalitesinde indirebilirsiniz.
Oyuncular Christian Bale, Cate Blanchett, Benedict Cumberbatch
2013
Peaky Blinders İndir (1-2-3-4 Sezon) – Türkçe Dublaj 720p
8.8
Peaky Blinders İndir (1-2-3-4 Sezon) – Türkçe Dublaj 720p
Peaky Blinders İndir (1-2-3-4 Sezon) – Türkçe Dublaj 720p
HD 0
İngiliz yapımı bir dizi olan Peaky Blinders, on dokuzuncu yüzyılın son yarısı ile yirminci yüzyılın başlarında geçmekte olan bir öyküyü konu almaktadır. Tür olarak dram türünde yer alan dizide Cillian Murphy ve Sam Neill gibi önemli oyuncular yer almaktadır. Dizi de bir çete, mafya ve bu mafyadan sorumlu olarak görev yapan bir polis şefi konu alınmaktadır.
Oyuncular Cillian Murphy, Sam Neil, Iddo Goldberg, Paul Anderson ve Helen McCrory
Abonelik
Bildir
guest

0 Yorum
Satır İçi Geri Bildirimler
Tüm yorumları görüntüle
0
Düşünceleriniz bizim için önemli, lütfen yorum yapın.x